#TITLE:Doki Doki が止まらない;
#SUBTITLE:みらろま;
#ARTIST:榊原　ゆい;
#TITLETRANSLIT:Doki Doki ga tomaranai;
#SUBTITLETRANSLIT:Mira Roma;
#ARTISTTRANSLIT:Yui Sakakibara;
#CREDIT:;
#BANNER:miraroma-banner1.png;
#BACKGROUND:miraroma-bg.png;
#LYRICSPATH:miraroma.lrc;
#CDTITLE:cdtitle.png;
#MUSIC:miraroma.ogg;
#OFFSET:-0.030;
#SAMPLESTART:60.000;
#SAMPLELENGTH:15.000;
#SELECTABLE:YES;
#BPMS:0.000=160.000;
#STOPS:;
#BGCHANGES:0.030=miraroma-op.avi=1.000=0=0=0,
99999=-nosongbg-=1.000=0=0=0 // don't automatically add -songbackground-
;
// cache tags:
#FIRSTBEAT:4.000;
#LASTBEAT:258.000;
#SONGFILENAME:songs/Otaku's Dream 3rd Anime Mix/Secret Simfile 2/miraroma.sm;
#HASMUSIC:1;
#HASBANNER:1;
#MUSICLENGTH:99.919;
// end cache tags

//---------------dance-single - YS Foot for novice----------------
#NOTES:
     dance-single:
     YS Foot for novice:
     Easy:
     4:
     0.316,0.323,0.470,0.040,0.000,170.000,47.000,4.000,0.000,0.000:
0000
0000
0000
0000
,
1001
0000
0000
0110
,
0001
0000
0001
0110
,
1000
0000
1000
0110
,
0001
0010
0001
0010
,
1001
0000
0100
0000
,
0010
0000
0100
0110
,
0010
0000
0100
0000
,
0010
0010
0100
1001
,
0110
0000
0000
0010
,
0000
0000
0000
0100
,
1001
0000
1000
0001
,
0100
0001
1000
0010
,
0100
0100
0010
0010
,
0000
0000
1000
0001
,
0110
0000
0110
0000
,
1000
0001
1000
0000
,
0110
0000
0110
0000
,
0001
1000
0001
0000
,
1001
0000
0010
0000
,
0100
0001
0100
0001
,
1001
0000
0110
0000
,
1000
0010
0100
0000
,
1001
0000
1001
0000
,
0010
0100
0010
0000
,
1001
0000
1001
0000
,
0100
0010
0100
0000
,
0110
0000
1000
0000
,
0001
0100
0001
0100
,
0110
0000
1001
0000
,
0001
0100
0010
0000
,
0110
0010
0110
0000
,
1001
0001
1001
0000
,
0011
0000
1100
0000
,
0100
0001
0100
0000
,
0010
0010
0100
0100
,
0001
0001
1000
1000
,
0001
1000
0010
0100
,
1001
0000
0000
1001
0000
0000
0000
0000
,
0100
0000
0010
0100
0000
0000
0000
0000
,
1001
0000
0000
0110
,
0001
0000
0001
0110
,
1000
0000
1000
0110
,
0001
0010
0001
0010
,
1001
0000
0100
0000
,
0010
0000
0100
0110
,
0010
0000
0100
0000
,
0010
0110
0100
0000
,
1000
0000
0001
0000
,
1000
0100
0010
0000
,
1001
0000
0010
0000
,
1001
0000
1001
0100
,
1001
0000
0100
0000
,
0010
0000
0100
0110
,
0010
0000
0100
0000
,
0010
0010
0100
1001
,
0220
0000
0000
0330
,
0010
0000
0000
0100
,
1001
0000
1000
0001
,
0100
0001
1000
0010
,
0100
0100
0010
0010
,
0000
0001
1000
0001
,
0000
2002
0000
0000
,
0000
0000
0000
0000
,
0000
0000
3003
0000
;

//---------------dance-single - YS Foot for intermed----------------
#NOTES:
     dance-single:
     YS Foot for intermed:
     Medium:
     6:
     0.452,0.516,0.610,0.020,0.000,253.000,61.000,2.000,0.000,0.000:
0000
0000
0000
0000
,
1001
0000
0000
0110
,
0001
1000
0001
0110
,
1000
0001
1000
0110
,
0001
0010
0001
0010
,
1001
0010
0100
0010
,
1000
0001
1000
0110
,
0010
0010
0100
0100
,
0001
1000
0001
1001
,
0110
0000
0000
0001
0000
0100
0010
0000
,
0110
0000
0000
1000
0000
0010
0100
0000
,
1001
0000
1000
0001
,
0100
0001
1000
0010
,
0100
0100
0010
0010
,
0000
1000
0100
0010
0001
0000
0001
0000
,
0110
1000
0110
0001
,
1000
0010
1000
0000
0100
0000
0010
0000
,
0110
0001
0110
1000
,
0001
1000
0001
0000
0010
0000
0100
0000
,
1001
0010
1000
0010
,
0100
0000
0001
0100
0000
0000
0001
0000
,
1001
0000
0110
0000
,
0100
0010
0100
0000
0010
0100
0010
0000
,
1001
0100
1001
0010
,
0100
0010
0100
0000
0001
0000
1000
0000
,
1001
0010
1001
0100
,
0010
0100
0010
0000
1000
0000
0001
0000
,
0110
0000
0000
0000
1000
0010
1000
0000
,
0001
0000
0100
0001
0000
0000
0100
0000
,
0110
0010
1001
0100
,
0001
0010
0001
0000
1000
0100
1000
0000
,
1010
0010
0011
0000
,
0101
0100
1100
0000
,
0011
0000
1100
0000
,
0100
0000
0001
0000
0100
0000
0000
0100
,
0001
0010
0100
1000
,
0100
0000
0010
0000
0001
0000
0100
0001
,
1000
0000
0110
0000
,
1001
0000
0010
0000
1000
0001
0000
1000
,
0001
0000
0100
0010
0000
0100
0010
0000
,
1001
0110
1001
0110
,
0001
1000
0001
0000
1000
0000
0010
0000
,
1001
0110
1001
0110
,
0001
1000
0001
0000
0100
0010
0100
0000
,
1001
0100
0100
0100
,
0010
0000
0010
0000
0100
0001
1000
0000
,
0011
1000
0011
1000
,
0010
0000
0100
0001
0000
0000
0110
0000
,
1000
0000
0000
0000
0001
0000
0000
1000
,
0000
0100
0010
0000
0001
0000
0000
0000
,
1001
0100
0010
0100
,
0011
0010
1100
0100
,
1001
0110
1001
0110
,
0010
0000
1000
0001
0000
0000
0100
0010
,
0100
0011
1100
0011
,
1100
0000
0010
0100
0010
0000
0110
0000
,
1001
0000
0000
1000
0000
0001
0100
0000
,
0110
0000
0000
0001
0000
1000
0010
0000
,
1001
0001
1001
1000
,
0001
1000
0001
0000
1000
0001
1000
0000
,
0010
0010
0100
0100
,
0000
0010
1000
0000
0001
0000
0100
0010
,
0000
2002
0000
0000
,
0000
0000
0000
0000
,
0000
0000
3003
0000
;

//---------------dance-single - YS Foot Hard?----------------
#NOTES:
     dance-single:
     YS Foot Hard?:
     Hard:
     7:
     0.506,0.516,0.621,0.020,0.000,290.000,62.000,2.000,0.000,0.000:
0000
0000
0000
0000
,
1001
0000
0000
1010
,
0001
1000
0001
0101
,
1000
0001
1000
1010
,
0001
1000
0010
0000
1000
0001
0100
0000
,
1001
0000
0010
0000
0001
0010
0100
0000
,
1000
0000
0001
1000
0000
0000
0101
0001
,
0010
0000
0010
0000
0100
1000
0001
0000
,
0001
1000
0010
0100
0000
0000
1001
0000
,
0110
0000
0000
0001
0000
0100
0010
0000
,
0110
0000
0000
1000
0000
0010
0100
0000
,
1001
0000
0100
0001
0000
0010
0000
0100
,
0000
1000
0001
0010
0100
0000
0010
0000
,
1100
1100
0011
0011
,
0000
1000
0100
0010
0001
0010
0100
1000
,
0110
0000
1000
0000
0001
0100
0001
0000
,
1000
0010
1000
0000
0100
0010
0100
0000
,
0110
0000
0001
0000
1000
0010
1000
0000
,
0001
0100
0001
0000
0010
0100
0010
0000
,
1001
0000
0010
0000
1000
0100
0010
0000
,
0010
0000
0001
0100
0000
0000
0001
1000
,
1001
0001
0110
1000
,
0001
0010
0100
0000
1000
0100
0010
0000
,
1001
0000
0100
0000
0010
1000
0010
0000
,
0100
0001
0100
0000
0010
1000
0010
0000
,
1001
0000
0010
0000
0100
0001
0100
0000
,
0010
1000
0010
0000
0100
0001
0100
0000
,
0110
0000
0001
0000
1000
0010
1000
0000
,
0001
0000
0100
0001
0000
0000
0100
0010
,
0110
0010
1001
0100
,
0001
0010
0001
0010
0100
1000
0100
1000
,
1010
0010
0010
0000
,
0101
0100
0100
0000
,
0011
0000
1100
0000
,
0001
0000
1000
0000
0010
0000
0000
0010
,
0100
0001
0010
0001
0100
0001
1000
0001
,
0100
0001
0010
0001
1000
0000
0010
1000
,
0001
0010
0110
0100
,
0011
0010
0100
0000
1000
0001
0000
1000
,
0001
0000
0100
0010
0000
0100
0010
0000
,
1100
0011
1100
0011
,
0001
1000
0001
0000
1000
0000
0010
0000
,
0101
1010
0101
1010
,
1000
0001
1000
0000
0100
0010
0100
0000
,
1001
0000
0100
0000
0010
1000
0001
0000
,
0100
0000
0010
1000
0000
0001
1000
0000
,
0011
1000
0011
1000
,
0001
1000
0010
0100
0000
0000
0110
0000
,
1000
0000
0000
0000
0000
0000
0000
1000
,
0000
0100
0010
0000
0001
0000
0000
0000
,
1001
0000
0000
0000
,
0011
0010
1100
0100
,
1010
0000
0110
0000
0010
1000
0001
0000
,
0101
0000
1000
0001
0000
0100
0001
0000
,
0100
0101
1010
0101
,
1010
0100
0010
0100
0000
0000
0110
0000
,
1001
0000
0000
1000
0000
0001
0100
0000
,
0110
0000
0000
0001
0000
1000
0010
0000
,
1010
0001
0101
1000
,
0001
1000
0100
0000
1000
0001
0010
0000
,
0110
0110
1001
1001
,
0000
0010
1000
0010
0100
0010
0100
0001
,
0000
2002
0000
0000
,
0000
0000
0000
0000
,
0000
0000
3003
0000
;

//---------------dance-single - Tats for key-playing----------------
#NOTES:
     dance-single:
     Tats for key-playing:
     Challenge:
     8:
     0.834,0.839,1.000,0.270,0.115,431.000,125.000,27.000,0.000,0.000:
0000
0000
0000
0000
,
2002
0000
3003
1010
,
0001
0010
1000
0100
0001
0010
0100
0010
,
1000
0101
1000
1010
,
0011
1001
1100
0101
,
2001
0000
3010
0100
0001
0010
0100
0010
,
1000
0100
0001
1000
0010
1000
0101
0001
,
0010
0100
1010
0001
0100
1000
0011
0010
,
0001
1000
0011
0100
1000
0010
1001
0100
,
0110
0001
0000
0001
0000
1100
1010
0001
,
0100
1000
0000
1000
0000
0010
0100
0010
,
1002
0010
0103
0010
0000
0011
0000
0110
,
0001
0000
1100
0000
0001
0000
0010
0000
0201
0000
0000
0300
0120
0000
0000
0000
,
2030
0000
0000
3000
2200
0000
0000
3300
2020
0000
0000
3030
2002
0000
0000
3003
,
0100
0000
1000
0000
0100
0000
0010
0000
0001
0010
0001
0010
1100
0000
0000
0000
,
0110
0000
1000
0000
0001
0100
0001
0100
,
1000
0010
1000
0001
0100
0010
0100
1000
,
0110
0100
0001
0100
0001
0010
1000
0010
,
0001
0100
0001
1000
0010
0100
0010
0001
,
1001
0010
0100
1000
0010
1000
0100
0001
,
0110
0000
0001
0101
0000
0010
0001
1000
,
0001
0010
0101
1000
0001
0010
1100
0010
,
0001
0000
0010
0000
1100
0000
0010
0000
1000
0000
0100
0000
0010
0000
1000
0100
,
0011
0000
1100
0000
0010
1000
0110
1000
,
0100
0001
0110
0001
0010
1100
1010
0100
,
1001
0010
0101
0010
0100
0001
0101
1000
,
0010
0001
1010
0100
0001
0011
0101
0010
,
0110
0100
1001
0010
1000
0011
1001
0100
,
1001
0010
0101
0011
0000
0010
1000
0010
,
0001
0010
0101
0010
1000
0010
1100
0010
,
1000
0010
1000
0010
1000
0100
1000
0100
0010
0001
1000
0100
0010
0100
0010
0001
,
2010
0000
0000
0000
0010
0000
0000
3000
1010
0000
0000
0000
0011
0000
0000
0000
,
0102
0000
0000
0000
0100
0000
0000
0003
0101
0000
0000
0000
0000
0000
0000
0000
,
0012
0000
0000
0000
0100
0000
0000
0003
1001
0000
0000
0000
2100
0000
0000
0000
,
0010
0000
0000
3000
1020
0000
0000
0000
0100
0000
0000
0030
1010
0000
0000
0000
,
0110
0001
0010
0001
0100
0001
1000
0001
,
0101
0001
0010
0001
1000
0100
0010
1000
,
0011
0100
0010
0001
0110
1000
0100
1000
,
0011
0101
1001
0000
1001
1001
0000
1010
,
1010
0000
0101
0011
0000
1100
1020
0000
,
1030
0100
1000
0100
1000
0100
0010
0001
,
0001
1000
0001
0010
1000
0100
0010
0001
,
0100
0001
1010
1000
0100
0100
1010
0010
,
1000
0001
1100
0010
0011
1000
0110
0010
,
1001
0010
0100
1000
0010
1000
0101
0010
,
0100
0001
1000
0100
0010
0001
1100
0010
,
0001
0010
1100
1000
0001
0100
1001
0010
,
0001
0000
1000
0000
0011
0000
0100
0000
1000
0100
1000
0100
0001
0010
0100
0010
,
2002
0000
0000
0000
0000
0000
0000
0000
0000
0000
0000
0000
0000
3003
1001
0000
,
0000
1010
0011
0000
1001
0000
0000
0000
,
1001
0110
0000
0101
0000
1010
0000
0110
,
1001
0010
0001
0100
1001
0010
0110
0000
,
1010
0000
0110
0000
0010
1000
0001
0010
,
0100
0010
1001
0001
1000
0010
0101
0010
,
1000
0001
0110
0001
0100
0001
1010
0001
,
1000
0000
0100
0000
0010
0000
0100
0000
1000
0100
1000
0100
0001
0010
0001
0010
,
1002
0000
0000
1003
0000
0011
0101
0000
,
0210
0000
0000
0301
0000
1100
1010
0000
,
2010
0000
3001
0010
0100
0010
1000
0100
,
0001
1000
0100
0001
0010
0100
0001
1000
,
0110
0001
0110
0010
1001
0100
1001
0001
,
1100
0000
1010
0000
0100
0000
0010
0000
1000
0001
1000
0001
2000
0000
3001
0000
,
0100
0010
0100
0010
2002
0000
0000
0000
0000
0000
0000
0000
0000
0000
0000
0000
,
0000
0000
0000
0000
,
0000
0000
3003
0000
;
